<?xml version="1.0" standalone="no"?>
<!DOCTYPE svg PUBLIC "-//W3C//DTD SVG 1.1//EN" "http://www.w3.org/Graphics/SVG/1.1/DTD/svg11.dtd" >
<svg xmlns="http://www.w3.org/2000/svg">
<metadata>Generated by IcoMoon</metadata>
<defs>
<font id="timeshop" horiz-adv-x="1024">
<font-face units-per-em="1024" ascent="960" descent="-64" />
<missing-glyph horiz-adv-x="1024" />
<glyph unicode="&#x20;" horiz-adv-x="512" d="" />
<glyph unicode="&#xe900;" glyph-name="add-to-cart" d="M404.765 122.576q0-30.286-21.429-51.714t-51.714-21.429-51.714 21.429-21.429 51.714 21.429 51.714 51.714 21.429 51.714-21.429 21.429-51.714zM916.765 122.576q0-30.286-21.429-51.714t-51.714-21.429-51.714 21.429-21.429 51.714 21.429 51.714 51.714 21.429 51.714-21.429 21.429-51.714zM989.908 744.291v-292.571q0-13.714-9.143-24.286t-23.429-12.286l-596.571-69.714q0.571-4 2.571-12.286t3.429-15.143 1.429-12.571q0-9.143-13.714-36.571h525.714q14.857 0 25.714-10.857t10.857-25.714-10.857-25.714-25.714-10.857h-585.143q-14.857 0-25.714 10.857t-10.857 25.714q0 8 6.286 22.571t16.857 34 11.714 21.714l-101.143 470.286h-116.571q-14.857 0-25.714 10.857t-10.857 25.714 10.857 25.714 25.714 10.857h146.286q9.143 0 16.286-3.714t11.429-8.857 7.429-14 4.286-15.143 3.143-16.857 2.571-14.571h686.286q14.857 0 25.714-10.857t10.857-25.714z" />
<glyph unicode="&#xe901;" glyph-name="add-to-cart-detail" d="M786.287 374.866h-36.575c-5.342 0-9.725-1.711-13.136-5.15-3.439-3.418-5.15-7.8-5.15-13.136v-182.855c0-25.144-8.947-46.664-26.85-64.571-17.903-17.903-39.431-26.848-64.575-26.848h-475.434c-25.142 0-46.668 8.945-64.575 26.848-17.903 17.905-26.854 39.425-26.854 64.571v475.428c0 25.142 8.949 46.66 26.854 64.565 17.907 17.907 39.433 26.856 64.575 26.856h402.281c5.342 0 9.725 1.719 13.15 5.144 3.424 3.428 5.136 7.806 5.136 13.144v36.577c0 5.328-1.711 9.713-5.136 13.136-3.424 3.428-7.808 5.14-13.15 5.14h-402.281c-45.329 0-84.093-16.096-116.289-48.285-32.183-32.187-48.279-70.952-48.279-116.281v-475.43c0-45.327 16.096-84.097 48.281-116.275 32.195-32.191 70.96-48.295 116.289-48.295h475.432c45.327 0 84.095 16.104 116.287 48.295 32.193 32.177 48.289 70.946 48.289 116.275v182.849c0 5.342-1.713 9.725-5.152 13.15-3.428 3.439-7.812 5.15-13.14 5.15zM1013.136 875.997c-7.239 7.239-15.822 10.856-25.719 10.856h-292.569c-9.903 0-18.479-3.617-25.713-10.856-7.239-7.235-10.864-15.808-10.864-25.713s3.625-18.479 10.864-25.719l100.567-100.569-372.565-372.573c-3.815-3.809-5.716-8.192-5.716-13.136 0-4.962 1.907-9.343 5.716-13.152l65.143-65.135c3.809-3.809 8.192-5.708 13.144-5.708s9.337 1.897 13.144 5.708l372.567 372.567 100.575-100.569c7.233-7.239 15.808-10.86 25.713-10.86s18.479 3.621 25.721 10.86c7.239 7.237 10.856 15.808 10.856 25.713v292.573c-0.002 9.911-3.631 18.477-10.864 25.713z" />
<glyph unicode="&#xe902;" glyph-name="header_phone" d="M819.2-64c-105.456 2.652-203.823 30.592-290.015 77.947l3.295-1.659c-100.718 53.145-187.093 117.634-262.048 193.439l-0.096 0.097c-75.898 75.209-140.39 161.752-190.765 256.916l-2.771 5.74c-45.829 82.871-73.936 181.211-76.781 285.857l-0.019 0.863c8.818 55.736 37.509 103.548 78.448 136.9l0.4 0.316c32.942 34.128 76.080 58.217 124.5 67.356l1.452 0.228c28.457-4.562 52.965-18.844 70.526-39.27l0.13-0.154c25.236-24.221 48.392-50.136 69.461-77.729l1.195-1.631c14.848-18.944 88.576-116.224 88.576-162.816 0-38.4-43.008-65.024-89.088-93.184-19.88-11.162-36.605-22.003-52.615-33.759l1.415 0.991c-14.336-11.264-16.896-17.408-16.896-18.432 68.020-139.679 178.273-249.932 313.946-316.186l4.006-1.766s7.168 2.56 18.432 16.896c10.735 14.577 21.575 31.3 31.436 48.653l1.332 2.547c28.16 45.568 54.784 89.088 93.184 89.088 46.592 0 143.872-73.728 162.816-88.576 29.005-22.259 54.753-45.41 78.599-70.393l0.249-0.263c22.293-17.848 37.774-43.395 42.409-72.555l0.087-0.661c-9.437-49.853-33.511-92.973-67.52-125.891l-0.064-0.061c-33.667-41.339-81.48-70.030-135.967-78.684l-1.249-0.164zM204.8 908.8c-36.301-9.502-67.372-28.29-91.575-53.683l-0.073-0.077c-31.423-24.227-53.743-58.915-61.773-98.778l-0.179-1.062c0-344.576 422.912-768 768-768 40.742 8.282 75.249 30.59 99.039 61.56l0.289 0.392c25.62 24.261 44.568 55.321 53.962 90.294l0.31 1.354c0 9.728-28.672 47.616-102.4 102.4-36.142 31.72-78.65 57.256-125.226 74.372l-2.774 0.892s-6.656 0-18.432-17.408c-10-13.463-20.316-29.004-29.837-45.072l-1.395-2.544c-28.672-46.592-55.808-90.624-95.232-90.624-6.648 0.052-12.976 1.364-18.776 3.707l0.344-0.123c-153.444 73.796-274.191 195.204-345.257 344.788l-1.879 4.396c-6.656 15.872-7.68 41.472 24.064 70.144 18.495 15.387 39.083 29.775 60.836 42.376l2.14 1.144c18.531 10.798 34.074 21.116 49.001 32.217l-1.385-0.985c14.848 11.776 16.896 17.408 17.408 18.432-18.568 49.2-44.588 91.519-77.137 127.87l0.337-0.382c-55.296 74.24-93.184 102.4-102.4 102.4z" />
<glyph unicode="&#xe903;" glyph-name="header-menu" d="M11.264-36.864h1001.472v93.696h-1001.472zM11.264 401.408h1001.472v93.696h-1001.472zM11.264 932.864v-93.696h1001.472v93.696z" />
<glyph unicode="&#xe904;" glyph-name="btn-update" d="M319.488 331.776l116.224 116.224h-87.040c0 0.15-0.001 0.327-0.001 0.505 0 91.052 73.812 164.864 164.864 164.864s164.864-73.812 164.864-164.864c0-91.052-73.812-164.864-164.864-164.864-0.54 0-1.079 0.003-1.617 0.008l0.082-0.001h-9.728l-3.584-54.784c4.134-0.279 8.96-0.437 13.824-0.437 120.743 0 218.624 97.881 218.624 218.624s-97.881 218.624-218.624 218.624c-120.743 0-218.624-97.881-218.624-218.624 0-0.026 0-0.053 0-0.079v0.004h-89.088zM512-64c-282.77 0-512 229.23-512 512s229.23 512 512 512c282.77 0 512-229.23 512-512v0c0-282.77-229.23-512-512-512v0zM512 902.656c-250.438-0.873-453.12-204.094-453.12-454.653 0-251.1 203.556-454.656 454.656-454.656s454.655 203.555 454.656 454.653v0c-0.582 251.224-204.374 454.656-455.679 454.656-0.18 0-0.361 0-0.541 0h0.028z" />
<glyph unicode="&#xe905;" glyph-name="btn-update-active" d="M512 960c-282.77 0-512-229.23-512-512s229.23-512 512-512c282.77 0 512 229.23 512 512v0c0 282.77-229.23 512-512 512v0zM668.672 294.4c-39.687-39.842-94.596-64.495-155.263-64.495-5.179 0-10.317 0.18-15.407 0.533l0.686-0.038 3.584 54.784h9.728c0.453-0.004 0.988-0.007 1.523-0.007 91.052 0 164.864 73.812 164.864 164.864s-73.812 164.864-164.864 164.864c-91.052 0-164.864-73.812-164.864-164.864 0-0.718 0.005-1.434 0.014-2.15l-0.001 0.109h87.040l-116.224-116.224-114.688 116.224h89.088c-0.005 0.56-0.008 1.222-0.008 1.885 0 121.308 98.34 219.648 219.648 219.648s219.648-98.34 219.648-219.648c0-60.739-24.654-115.72-64.5-155.481l-0.004-0.004z" />
<glyph unicode="&#xe906;" glyph-name="btn-remove" d="M512-64c-282.77 0-512 229.23-512 512s229.23 512 512 512c282.77 0 512-229.23 512-512v0c0-282.77-229.23-512-512-512v0zM512 904.192c-251.948 0-456.192-204.244-456.192-456.192s204.244-456.192 456.192-456.192c251.948 0 456.192 204.244 456.192 456.192v0c-0.291 251.831-204.361 455.901-456.164 456.192h-0.028zM732.16 627.712l-40.448 40.448-179.712-179.712-179.712 179.712-40.448-40.448 179.712-179.712-179.712-179.712 40.448-40.448 179.712 179.712 179.712-179.712 40.448 40.448-179.712 179.712 179.712 179.712z" />
<glyph unicode="&#xe907;" glyph-name="btn-remove-active" d="M512 960c-282.77 0-512-229.23-512-512s229.23-512 512-512c282.77 0 512 229.23 512 512v0c0 282.77-229.23 512-512 512v0zM732.16 267.776l-39.936-40.448-180.224 180.224-179.712-179.712-39.936 40.448 179.2 179.712-179.712 179.712 39.936 40.448 180.224-180.224 179.712 180.224 40.448-39.936-179.712-180.224z" />
<glyph unicode="&#xe908;" glyph-name="wish" d="M929.382 790.426c-46.716 41.64-108.655 67.084-176.538 67.084s-129.822-25.444-176.802-67.315l0.264 0.231-66.355-60.621-65.946 60.621c-46.716 41.64-108.655 67.084-176.538 67.084s-129.822-25.444-176.802-67.315l0.264 0.231c-50.485-44.79-82.141-109.834-82.141-182.272s31.656-137.482 81.889-182.053l0.252-0.219 419.43-385.024 419.43 385.024c50.364 44.781 81.936 109.749 81.936 182.091 0 72.534-31.74 137.655-82.089 182.23l-0.257 0.223z" />
<glyph unicode="&#xe909;" glyph-name="header_menu" d="M7.523 652.609h1009.502v-126.188h-1009.502v126.188zM7.523 400.234h1009.502v-126.188h-1009.502v126.188zM7.523 147.86h1009.502v-126.188h-1009.502v126.188z" />
<glyph unicode="&#xe90a;" d="M41.598 621.324h940.804c22.974 0 41.598-18.624 41.598-41.598v-263.453c0-22.974-18.624-41.598-41.598-41.598h-940.804c-22.974 0-41.598 18.624-41.598 41.598v263.453c0 22.974 18.624 41.598 41.598 41.598z" />
<glyph unicode="&#xe90b;" d="M124.918 454.917c0 0-70.651 39.144-74.8 41.444-4.156 2.3-8.292 0.905-8.292-3.902v-168.827c0-3.598 2.955-5.159 6.566-3.163 3.604 1.996 76.526 42.403 76.526 42.403s9.906 5.486 14.86 8.228c7.971 4.414 23.914 13.243 23.914 13.243s32.899 18.232 37.276 20.649c4.37 2.424 3.949 5.746 0.262 7.659-3.694 1.906-37.538 20.787-37.538 20.787l-38.774 21.478z" />
<glyph unicode="&#xe90c;" d="M137.966 409.175l-92.902 88.049c-2.167-0.503-3.466-2.125-3.466-4.853v-168.471c0-2.315 0.933-3.692 2.080-4.16l94.288 89.435z" />
<glyph unicode="&#xe90d;" d="M124.794 454.933c-0.136-0.313-70.759 38.903-74.876 40.905-4.186 2.606-8.32 1.209-8.32-3.466v-83.889c0 0.031 0-81.776 0-85.276 0-3.717 2.954-5.281 6.24-3.466 3.926 2.185 76.82 42.667 76.956 42.984l38.825 21.492c-0.202-0.299 32.684 17.966 36.745 20.106 4.683 2.711 4.262 6.038 0.693 7.626-3.809 2.238-37.64 21.154-37.438 21.492l-38.825 21.492z" />
<glyph unicode="&#xe90e;" d="M49.992 496.429c-1.788 0.958-3.565 1.232-5.003 0.845l92.979-88.177 25.723 24.343-38.774 21.478c0 0-36.546 20.248-58.612 32.474l-16.313 9.037z" />
<glyph unicode="&#xe90f;" d="M701.35 379.454l-7.677-7.287c-1.774-0.981-3.539-2.12-5.299-2.928-5.332-2.435-10.755-3.048-15.574-3.048-5.128 0-13.167 0.335-21.367 6.301-11.392 8.072-16.373 21.947-16.373 34.038 0 25.033 20.259 37.31 36.784 37.31 5.775 0 11.706-1.455 16.53-4.521 8.020-5.335 10.094-12.268 11.245-15.981l-37.735-15.335-12.358-0.966c4-20.526 17.804-32.464 33.059-32.464 7.62 0 13.276 2.502 18.466 5.081 0 0 1.042 0.545 0.3-0.201v0zM678.294 420.63c3.028 1.127 4.604 2.1 4.604 4.364 0 6.493-7.171 13.993-15.73 13.993-6.339 0-18.241-5.058-18.241-22.62 0-2.741 0.32-5.66 0.48-8.579l28.888 12.842z" />
<glyph unicode="&#xe910;" d="M622.599 380.332c0-6.257 1.109-7.231 6.367-7.723 2.74-0.325 5.471-0.468 8.174-0.792l-5.917-3.546h-28.196c3.698 4.83 4.333 5.312 4.333 8.529v3.594l-0.062 95.764h-12.45l11.986 5.813h22.881c-4.959-2.892-6.443-4.654-7.079-10.29l-0.038-91.349z" />
<glyph unicode="&#xe911;" d="M578.854 435.938c3.668-3.040 11.322-9.492 11.322-21.728 0-11.926-6.669-17.548-13.395-22.869-2.064-2.095-4.478-4.367-4.478-7.879 0-3.565 2.414-5.498 4.151-6.939l5.77-4.491c7.015-5.97 13.41-11.444 13.41-22.563 0-15.147-14.541-30.423-42.018-30.423-23.146 0-34.336 11.115-34.336 23.031 0 5.798 2.864 14.011 12.312 19.638 9.902 6.104 23.317 6.92 30.502 7.397-2.244 2.921-4.804 5.98-4.804 10.971 0 2.73 0.814 4.357 1.6 6.276-1.747-0.167-3.507-0.339-5.107-0.339-16.941 0-26.516 12.742-26.516 25.298 0 7.407 3.351 15.624 10.234 21.58 9.107 7.559 19.965 8.862 28.594 8.862h32.916l-10.234-5.822h-9.921zM567.616 364.629c-1.322 0.175-2.114 0.175-3.708 0.175-1.46 0-10.159-0.321-16.897-2.624-3.564-1.326-13.867-5.247-13.867-16.893 0-11.621 11.123-20.002 28.33-20.002 15.46 0 23.668 7.545 23.668 17.704 0 8.361-5.311 12.773-17.526 21.639v0zM572.133 395.645c3.676 3.706 3.997 8.825 3.997 11.732 0 11.546-6.82 29.53-20.040 29.53-4.124 0-8.592-2.089-11.128-5.319-2.691-3.345-3.497-7.683-3.497-11.856 0-10.752 6.212-28.583 19.875-28.583 3.987 0 8.276 1.955 10.793 4.496v0z" />
<glyph unicode="&#xe912;" d="M479.302 366.191c-25.444 0-39.058 20.072-39.058 38.246 0 21.235 17.115 39.404 41.458 39.404 23.533 0 38.271-18.664 38.271-38.26 0-19.14-14.567-39.389-40.671-39.389v0zM499.201 379.318c3.884 5.205 4.826 11.701 4.826 18.033 0 14.322-6.74 41.636-26.66 41.636-5.298 0-10.633-2.096-14.479-5.518-6.273-5.691-7.392-12.843-7.392-19.859 0-16.067 7.844-42.566 27.312-42.566 6.283 0 12.694 3.079 16.393 8.274v0z" />
<glyph unicode="&#xe913;" d="M394.024 366.191c-25.46 0-39.055 20.072-39.055 38.246 0 21.235 17.127 39.404 41.471 39.404 23.528 0 38.258-18.664 38.258-38.26 0-19.14-14.554-39.389-40.674-39.389v0zM413.932 379.318c3.857 5.205 4.819 11.701 4.819 18.033 0 14.322-6.762 41.636-26.673 41.636-5.319 0-10.6-2.096-14.458-5.518-6.286-5.691-7.4-12.843-7.4-19.859 0-16.067 7.881-42.566 27.325-42.566 6.272 0 12.677 3.079 16.386 8.274v0z" />
<glyph unicode="&#xe914;" d="M344.413 370.988l-21.552-4.967c-8.732-1.386-16.574-2.603-24.877-2.603-41.57 0-57.41 30.795-57.41 54.897 0 29.433 22.443 56.724 60.878 56.724 8.132 0 15.954-1.203 23.081-3.16 11.295-3.193 16.578-7.129 19.88-9.436l-12.52-11.967-5.278-1.189 3.763 6.036c-5.097 5.010-14.468 14.259-32.252 14.259-23.777 0-41.713-18.19-41.713-44.747 0-28.523 20.48-55.353 53.327-55.353 9.652 0 14.62 1.951 19.132 3.773v24.452l-22.757-1.232 12.062 6.521h31.937l-3.906-3.783c-1.053-0.901-1.196-1.208-1.491-2.416-0.157-1.381-0.305-5.773-0.305-7.316v-18.492z" />
<glyph unicode="&#xe915;" d="M747.861 378.712v-40.946h-8.113v104.193h8.113v-11.867c5.285 7.67 14.943 13.749 26.16 13.749 20.119 0 33.67-15.297 33.67-39.512 0-24.053-13.551-39.67-33.67-39.67-10.59 0-20.076 5.474-26.16 14.054v0zM799.372 403.704c0 18.443-9.527 32.51-26.42 32.51-10.491 0-20.524-8.319-24.884-15.574v-33.704c4.36-7.269 14.393-15.892 24.884-15.892 16.893 0 26.42 14.187 26.42 32.66v0z" />
<glyph unicode="&#xe916;" d="M818.784 470.879h8.32v-104.688h-8.32v104.688z" />
<glyph unicode="&#xe917;" d="M917.553 344.975c1.735-0.777 4.696-1.253 6.574-1.253 4.962 0 8.418 2.035 11.522 9.22l5.918 13.442-31.961 76.069h9.050l27.417-65.92 27.151 65.92h9.179l-38.982-92.032c-4.045-9.482-10.41-14.043-19.151-14.043-2.624 0-6.084 0.467-8.109 1.091l1.393 7.505z" />
<glyph unicode="&#xe918;" d="M894.657 366.294c-0.545 2.63-0.956 4.949-1.257 6.884-0.249 1.931-0.392 3.904-0.392 5.912-2.796-4.115-6.759-7.54-11.822-10.238-5.067-2.716-9.881-4.048-16.482-4.048-7.95 0-14.121 1.959-18.524 5.936-4.388 3.971-6.597 9.351-6.597 16.159 0 6.798 3.198 12.317 9.575 16.537 6.377 4.24 14.618 6.348 24.819 6.348h19.030v9.423c0 5.428-1.845 9.696-5.531 12.791-3.7 3.1-8.891 4.666-15.622 4.666-6.152 0-11.143-1.432-14.943-4.221-3.767-2.846-5.665-6.372-5.665-10.621h-8.351l-0.172 0.407c-0.301 5.73 2.314 10.755 7.873 15.095 5.536 4.336 12.787 6.515 21.712 6.515 8.896 0 16.095-2.146 21.521-6.429 5.421-4.24 8.141-10.367 8.141-18.377v-37.415c0-2.688 0.129-5.284 0.464-7.814 0.344-2.534 0.894-5.064 1.625-7.512h-9.403zM865.685 371.737c6.926 0 11.902 1.56 16.989 4.647 5.053 3.067 8.492 7.069 10.293 11.913v14.639h-19.105c-7.298 0-13.34-1.628-18.092-4.912-4.762-3.274-7.174-7.237-7.174-11.846 0-4.348 1.528-7.825 4.566-10.459 3.047-2.663 7.212-3.982 12.523-3.982v0z" />
<glyph unicode="&#xe919;" d="M237.83 541.38c0 14.934 11.925 24.54 26.754 24.54 9.939 0 16.438-4.412 20.488-9.815l-7.259-3.914c-2.751 3.559-7.57 6.327-13.229 6.327-10.087 0-17.58-7.109-17.58-17.138 0-9.882 7.493-17.138 17.58-17.138 5.201 0 9.786 2.204 12.078 4.265v7.327h-15.287v7.327h24.156v-17.711c-4.967-5.194-12.154-8.678-20.947-8.678-14.829 0-26.754 9.74-26.754 24.607z" />
<glyph unicode="&#xe91a;" d="M297.095 517.496v47.701h35.414v-7.372h-26.347v-12.295h25.804v-7.367h-25.804v-13.3h26.347v-7.367h-35.414z" />
<glyph unicode="&#xe91b;" d="M356.594 517.496v40.329h-15.411v7.372h39.751v-7.372h-15.411v-40.329h-8.928z" />
<glyph unicode="&#xe91c;" d="M412.734 565.197h8.673v-47.701h-8.673v47.701z" />
<glyph unicode="&#xe91d;" d="M446.219 517.496v40.329h-15.416v7.372h39.751v-7.372h-15.406v-40.329h-8.928z" />
<glyph unicode="&#xe91e;" d="M500.186 541.344c0 14.177 10.908 24.575 26.383 24.575 15.388 0 26.378-10.399 26.378-24.575 0-14.172-10.99-24.571-26.378-24.571-15.475 0-26.383 10.399-26.383 24.571v0zM543.55 541.708c0 9.727-6.683 16.984-16.982 16.984-10.376 0-16.987-7.257-16.987-16.984 0-9.653 6.611-16.984 16.987-16.984 10.299 0 16.982 7.332 16.982 16.984v0z" />
<glyph unicode="&#xe91f;" d="M598.532 517.496l-26.547 34.11v-34.11h-8.92v47.701h9.154l26.008-33.043v33.043h8.925v-47.701h-8.62z" />
<glyph unicode="&#xe920;" d="M1023.488 451.072c0-281.073-227.855-508.928-508.928-508.928s-508.928 227.855-508.928 508.928c0 281.073 227.855 508.928 508.928 508.928s508.928-227.855 508.928-508.928z" />
<glyph unicode="&#xe921;" d="M799.232 396.8h-188.416l62.976 66.048c5.135 4.613 8.35 11.275 8.35 18.688s-3.215 14.075-8.327 18.668l-0.023 0.020c-5.015 4.684-11.772 7.56-19.2 7.56s-14.185-2.876-19.216-7.575l0.016 0.015c-9.728-9.728-106.496-111.104-106.496-111.104-4.861-4.747-7.875-11.365-7.875-18.688s3.014-13.941 7.87-18.683l0.005-0.005s96.768-102.4 106.496-111.104c5.015-4.684 11.772-7.56 19.2-7.56s14.185 2.876 19.216 7.575l-0.016-0.015c5.135 4.613 8.35 11.275 8.35 18.688s-3.215 14.075-8.327 18.668l-0.023 0.020-62.976 65.536h187.904c0.615-0.054 1.332-0.084 2.055-0.084 13.856 0 25.088 11.232 25.088 25.088 0 0.21-0.003 0.419-0.008 0.627l0.001-0.031c-0.255 14.812-11.908 26.822-26.55 27.645l-0.074 0.003z" />
<glyph unicode="&#xe922;" d="M516.608 525.312c-0.018 7.203-2.95 13.718-7.679 18.431l-0.001 0.001s-99.328 101.376-107.008 109.056c-5.015 4.684-11.772 7.56-19.2 7.56s-14.185-2.876-19.216-7.575l0.016 0.015c-5.135-4.613-8.35-11.275-8.35-18.688s3.215-14.075 8.327-18.668l0.023-0.020 62.976-65.024h-187.392c-0.615 0.054-1.332 0.084-2.055 0.084-13.856 0-25.088-11.232-25.088-25.088 0-0.21 0.003-0.419 0.008-0.627l-0.001 0.031c1.261-13.776 12.278-24.617 26.022-25.595l0.090-0.005h188.928l-63.488-66.56c-5.135-4.613-8.35-11.275-8.35-18.688s3.215-14.075 8.327-18.668l0.023-0.020c5.015-4.684 11.772-7.56 19.2-7.56s14.185 2.876 19.216 7.575l-0.016-0.015c7.68 9.728 106.496 111.104 106.496 111.104 5.038 4.761 8.178 11.484 8.192 18.941v0.003z" />
<glyph unicode="&#xe923;" glyph-name="circle_wish" d="M512 928c0.095 0 0.207 0 0.32 0 263.329 0 476.8-213.471 476.8-476.8s-213.471-476.8-476.8-476.8c-263.329 0-476.8 213.47-476.8 476.799v0.001c0.363 263.071 213.435 476.255 476.428 476.8h0.052zM512 960c-281.002 0-508.8-227.798-508.8-508.8s227.798-508.8 508.8-508.8c281.002 0 508.8 227.798 508.8 508.8v0c0 281.002-227.798 508.8-508.8 508.8v0zM666.56 608c0.12 0 0.262 0.001 0.404 0.001 31.622 0 60.402-12.166 81.915-32.074l-0.080 0.073c23.359-20.407 38.033-50.25 38.033-83.52s-14.674-63.113-37.903-83.409l-0.13-0.111-224-206.4-224 206.4c-23.359 20.407-38.033 50.25-38.033 83.52s14.674 63.113 37.903 83.409l0.13 0.111c21.766 19.249 50.55 31.001 82.080 31.001s60.314-11.753 82.212-31.116l-0.132 0.115 39.040-35.84 21.76-19.84 21.76 19.84 36.8 35.84c21.434 19.834 50.214 32.001 81.836 32.001 0.142 0 0.284 0 0.426-0.001h-0.022zM666.56 640c-0.334 0.003-0.728 0.004-1.123 0.004-39.502 0-75.514-14.943-102.691-39.484l0.134 0.119-39.040-35.84-39.040 35.84c-27.439 24.447-63.815 39.385-103.68 39.385s-76.241-14.938-103.836-39.521l0.156 0.137c-29.694-26.279-48.32-64.484-48.32-107.040s18.625-80.761 48.169-106.909l0.151-0.131 246.4-226.56 246.4 226.24c29.694 26.279 48.32 64.484 48.32 107.040s-18.625 80.761-48.169 106.909l-0.151 0.131c-27.091 24.613-63.24 39.682-102.909 39.682-0.271 0-0.542-0.001-0.813-0.002h0.042z" />
<glyph unicode="&#xe924;" glyph-name="circle_wish_full" d="M512 960c-280.992 0-508.8-227.808-508.8-508.8s227.808-508.8 508.8-508.8 508.8 227.808 508.8 508.8-227.808 508.8-508.8 508.8v0zM666.56 608c30.464 0.096 59.84-11.328 82.24-32 46.112-40.128 50.976-110.080 10.848-156.192-3.36-3.872-6.976-7.488-10.848-10.848l-224-206.4-224 206.4c-46.112 40.128-50.976 110.080-10.848 156.192 3.36 3.872 6.976 7.488 10.848 10.848 46.912 41.344 117.248 41.344 164.16 0l39.040-35.84 21.76-19.84 21.76 19.84 36.8 35.84c22.4 20.672 51.776 32.096 82.24 32z" />
<glyph unicode="&#xe925;" glyph-name="circle_compare_full" d="M512 960c-281.002 0-508.8-227.798-508.8-508.8s227.798-508.8 508.8-508.8c281.002 0 508.8 227.798 508.8 508.8v0c0 281.002-227.798 508.8-508.8 508.8v0zM408 437.44c-3.52 3.281-5.714 7.944-5.714 13.12s2.194 9.839 5.703 13.11l0.011 0.010 57.6 59.52h-179.52c-10.547 0.513-18.904 9.19-18.904 19.818 0 0.345 0.009 0.689 0.026 1.030l-0.002-0.048c-0.002 0.109-0.004 0.237-0.004 0.366 0 9.897 8.023 17.92 17.92 17.92 0.452 0 0.9-0.017 1.343-0.050l-0.059 0.004h179.2l-60.8 64c-3.52 3.281-5.714 7.944-5.714 13.12s2.194 9.839 5.703 13.11l0.011 0.010c3.543 3.341 8.332 5.395 13.6 5.395s10.057-2.054 13.61-5.404l-0.010 0.009c7.040-6.72 91.84-96 91.84-96 3.436-3.321 5.569-7.972 5.569-13.12s-2.133-9.799-5.563-13.115l-0.005-0.005s-81.28-84.8-88.32-91.52c-3.625-3.832-8.746-6.217-14.423-6.217-5.029 0-9.621 1.871-13.118 4.955l0.022-0.019zM736 334.72h-179.2l60.8-64c3.52-3.281 5.714-7.944 5.714-13.12s-2.194-9.839-5.703-13.11l-0.011-0.010c-3.543-3.341-8.332-5.395-13.6-5.395s-10.057 2.054-13.61 5.404l0.010-0.009c-7.040 6.72-91.84 96-91.84 96-3.436 3.321-5.569 7.972-5.569 13.12s2.133 9.799 5.563 13.115l0.005 0.005s81.28 84.8 88.32 91.52c3.543 3.341 8.332 5.395 13.6 5.395s10.057-2.054 13.61-5.404l-0.010 0.009c3.52-3.281 5.714-7.944 5.714-13.12s-2.194-9.839-5.703-13.11l-0.011-0.010-57.6-59.52h179.52c10.297-0.685 18.409-9.131 18.56-19.505v-0.015c0.002-0.099 0.003-0.215 0.003-0.332 0-9.897-8.023-17.92-17.92-17.92-0.226 0-0.451 0.004-0.675 0.012l0.032-0.001z" />
<glyph unicode="&#xe926;" glyph-name="circle_compare" d="M512 928c0.095 0 0.207 0 0.32 0 263.329 0 476.8-213.471 476.8-476.8s-213.471-476.8-476.8-476.8c-263.329 0-476.8 213.47-476.8 476.799v0.001c0.363 263.071 213.435 476.255 476.428 476.8h0.052zM512 960c-281.002 0-508.8-227.798-508.8-508.8s227.798-508.8 508.8-508.8c281.002 0 508.8 227.798 508.8 508.8v0c0 281.002-227.798 508.8-508.8 508.8v0zM422.080 448h-2.24s0 2.56 0 4.16l83.52 86.4h-215.36c-1.69 0.395-2.968 1.781-3.198 3.499l-0.002 0.021c0 1.6 0 2.24 3.52 2.24h216.64l-88.96 90.88c-1.92 2.24 0 2.56 0 3.84h4.8c7.040-6.72 91.52-96 91.52-96v0-4.16s-80.96-83.2-88-90.88zM418.56 655.68c-0.015 0-0.032 0-0.050 0-5.21 0-9.935-2.075-13.395-5.444l0.004 0.004c-3.52-3.281-5.714-7.944-5.714-13.12s2.194-9.839 5.703-13.11l0.011-0.010 60.8-64h-177.92c-0.384 0.029-0.832 0.046-1.284 0.046-9.897 0-17.92-8.023-17.92-17.92 0-0.129 0.001-0.257 0.004-0.385v0.019c0.151-10.389 8.263-18.835 18.5-19.517l0.060-0.003h179.84l-57.6-59.52c-3.52-3.281-5.714-7.944-5.714-13.12s2.194-9.839 5.703-13.11l0.011-0.010c3.455-3.365 8.18-5.44 13.39-5.44 0.017 0 0.035 0 0.052 0h-0.003c5.222 0.022 9.957 2.091 13.446 5.446l-0.006-0.006c7.040 6.72 88.32 91.52 88.32 91.52 3.436 3.321 5.569 7.972 5.569 13.12s-2.133 9.799-5.563 13.115l-0.005 0.005s-84.8 88.32-91.84 96c-3.483 3.349-8.218 5.418-13.436 5.44h-0.004zM605.44 256c-0.381-0.139-0.821-0.22-1.28-0.22s-0.899 0.080-1.307 0.228l0.027-0.008c-5.76 5.44-67.84 70.080-91.52 96v0 4.16s80.96 84.48 88 91.2h4.8s0-2.56 0-4.16l-83.52-86.4h215.36c1.69-0.395 2.968-1.781 3.198-3.499l0.002-0.021c0-1.6 0-2.24-3.52-2.24h-215.36l87.68-90.24c1.92-2.24 0-2.56 0-3.84zM601.92 463.68c-5.222-0.022-9.957-2.091-13.446-5.446l0.006 0.006c-7.040-6.72-88.32-91.52-88.32-91.52-3.436-3.321-5.569-7.972-5.569-13.12s2.133-9.799 5.563-13.115l0.005-0.005s84.8-88.32 91.84-96c3.483-3.349 8.218-5.418 13.436-5.44h0.004c0.015 0 0.032 0 0.050 0 5.21 0 9.935 2.075 13.395 5.444l-0.004-0.004c3.52 3.281 5.714 7.944 5.714 13.12s-2.194 9.839-5.703 13.11l-0.011 0.010-60.8 64h177.92c0.384-0.029 0.832-0.046 1.284-0.046 9.897 0 17.92 8.023 17.92 17.92 0 0.129-0.001 0.257-0.004 0.385v-0.019c-0.151 10.389-8.263 18.835-18.5 19.517l-0.060 0.003h-178.88l57.6 59.52c3.52 3.281 5.714 7.944 5.714 13.12s-2.194 9.839-5.703 13.11l-0.011 0.010c-3.455 3.365-8.18 5.44-13.39 5.44-0.017 0-0.035 0-0.052 0h0.003z" />
<glyph unicode="&#xe927;" glyph-name="chat_active" d="M801.344 362.496v399.584c0 39.488-32 71.552-71.552 71.552h-626.272c-39.52 0.032-71.552-32.032-71.552-71.552v-399.584c0-39.52 32.032-71.552 71.552-71.552h119.328v-164.384l182.528 164.384h324.384c39.584 0 71.584 32.032 71.584 71.552zM920.48 676.544h-89.536c0 0 0-319.104 0-349.088s-38.912-68.544-68.896-68.544-350.24-1.76-350.24-1.76c0-39.52 32.032-63.552 71.552-63.552h137.888l179.904-163.264-0.224 163.264h119.552c39.552 0 71.552 24.032 71.552 63.552v349.824c0 39.488-32 69.568-71.552 69.568z" />
<glyph unicode="&#xe928;" glyph-name="chat" d="M801.344 362.496v399.584c0 39.488-32 71.552-71.552 71.552h-626.272c-39.52 0.032-71.552-32.032-71.552-71.552v-399.584c0-39.52 32.032-71.552 71.552-71.552h119.328v-164.384l182.528 164.384h324.384c39.584 0 71.584 32.032 71.584 71.552zM920.48 676.544h-89.536c0 0 0-319.104 0-349.088s-38.912-68.544-68.896-68.544-350.24-1.76-350.24-1.76c0-39.52 32.032-63.552 71.552-63.552h137.888l179.904-163.264-0.224 163.264h119.552c39.552 0 71.552 24.032 71.552 63.552v349.824c0 39.488-32 69.568-71.552 69.568z" />
<glyph unicode="&#xe929;" glyph-name="cart" d="M404.765 122.576q0-30.286-21.429-51.714t-51.714-21.429-51.714 21.429-21.429 51.714 21.429 51.714 51.714 21.429 51.714-21.429 21.429-51.714zM916.765 122.576q0-30.286-21.429-51.714t-51.714-21.429-51.714 21.429-21.429 51.714 21.429 51.714 51.714 21.429 51.714-21.429 21.429-51.714zM989.908 744.291v-292.571q0-13.714-9.143-24.286t-23.429-12.286l-596.571-69.714q0.571-4 2.571-12.286t3.429-15.143 1.429-12.571q0-9.143-13.714-36.571h525.714q14.857 0 25.714-10.857t10.857-25.714-10.857-25.714-25.714-10.857h-585.143q-14.857 0-25.714 10.857t-10.857 25.714q0 8 6.286 22.571t16.857 34 11.714 21.714l-101.143 470.286h-116.571q-14.857 0-25.714 10.857t-10.857 25.714 10.857 25.714 25.714 10.857h146.286q9.143 0 16.286-3.714t11.429-8.857 7.429-14 4.286-15.143 3.143-16.857 2.571-14.571h686.286q14.857 0 25.714-10.857t10.857-25.714z" />
<glyph unicode="&#xe92a;" d="M41.598 621.324h940.804c22.974 0 41.598-18.624 41.598-41.598v-263.453c0-22.974-18.624-41.598-41.598-41.598h-940.804c-22.974 0-41.598 18.624-41.598 41.598v263.453c0 22.974 18.624 41.598 41.598 41.598z" />
<glyph unicode="&#xe92b;" d="M224.171 455.935c-0.223 24.796 20.303 36.859 21.242 37.421-11.625 16.949-29.643 19.264-35.975 19.449-15.133 1.593-29.812-9.055-37.521-9.055-7.863 0-19.734 8.901-32.528 8.64-16.464-0.254-31.866-9.786-40.314-24.588-17.433-30.181-4.431-74.534 12.271-98.93 8.355-11.956 18.118-25.288 30.897-24.819 12.502 0.508 17.172 7.97 32.259 7.97 14.948 0 19.334-7.97 32.366-7.663 13.417 0.2 21.865 11.994 29.928 24.057 9.655 13.679 13.533 27.181 13.687 27.873-0.308 0.1-26.050 9.925-26.312 39.644z" />
<glyph unicode="&#xe92c;" d="M199.552 528.854c6.724 8.409 11.325 19.849 10.048 31.459-9.732-0.431-21.903-6.732-28.912-14.956-6.201-7.247-11.74-19.126-10.309-30.297 10.932-0.816 22.157 5.516 29.174 13.794z" />
<glyph unicode="&#xe92d;" d="M405.252 365.768h-17.472l-9.571 30.074h-33.267l-9.117-30.074h-17.010l32.966 102.385h20.357l33.113-102.385zM375.325 408.459l-8.655 26.727c-0.916 2.739-2.639 9.171-5.162 19.295h-0.308c-1.016-4.355-2.639-10.786-4.862-19.295l-8.509-26.727h27.496z" />
<glyph unicode="&#xe92e;" d="M489.865 403.589c0-12.556-3.408-22.48-10.232-29.766-6.109-6.486-13.702-9.725-22.757-9.725-9.778 0-16.81 3.485-21.080 10.478v-38.737h-16.402v79.489c0 7.886-0.208 15.972-0.608 24.265h14.425l0.916-11.709h0.308c5.47 8.824 13.771 13.233 24.911 13.233 8.709 0 15.979-3.439 21.796-10.325 5.809-6.901 8.724-15.964 8.724-27.204v0zM473.155 402.989c0 7.186-1.616 13.11-4.862 17.772-3.547 4.855-8.309 7.293-14.279 7.293-4.047 0-7.724-1.354-11.009-4.031-3.293-2.685-5.447-6.201-6.455-10.563-0.508-2.023-0.762-3.677-0.762-4.985v-12.325c0-5.355 1.646-9.886 4.939-13.594 3.293-3.693 7.57-5.547 12.833-5.547 6.178 0 10.986 2.393 14.425 7.14 3.447 4.762 5.17 11.040 5.17 18.841v0z" />
<glyph unicode="&#xe92f;" d="M574.778 403.589c0-12.556-3.408-22.48-10.232-29.766-6.116-6.486-13.702-9.725-22.765-9.725-9.771 0-16.803 3.485-21.080 10.478v-38.737h-16.402v79.489c0 7.886-0.208 15.972-0.608 24.265h14.425l0.916-11.709h0.308c5.462 8.824 13.764 13.233 24.911 13.233 8.701 0 15.979-3.439 21.803-10.325 5.801-6.901 8.724-15.964 8.724-27.204v0zM558.060 402.989c0 7.186-1.623 13.11-4.87 17.772-3.539 4.855-8.294 7.293-14.264 7.293-4.047 0-7.724-1.354-11.025-4.031-3.285-2.685-5.439-6.201-6.447-10.563-0.5-2.023-0.769-3.677-0.769-4.985v-12.325c0-5.355 1.654-9.886 4.932-13.594 3.293-3.685 7.57-5.547 12.848-5.547 6.186 0 10.994 2.393 14.425 7.14 3.447 4.762 5.17 11.040 5.17 18.841v0z" />
<glyph unicode="&#xe930;" d="M669.715 394.48c0-8.709-3.039-15.795-9.101-21.265-6.663-5.97-15.964-8.963-27.889-8.963-11.017 0-19.849 2.123-26.512 6.378l3.793 13.671c7.193-4.254 15.095-6.386 23.696-6.386 6.186 0 10.994 1.4 14.425 4.178 3.447 2.793 5.178 6.509 5.178 11.156 0 4.162-1.431 7.655-4.262 10.494-2.839 2.824-7.532 5.47-14.118 7.886-17.926 6.686-26.896 16.472-26.896 29.327 0 8.401 3.17 15.279 9.486 20.657 6.324 5.37 14.71 8.055 25.142 8.055 9.317 0 17.079-1.623 23.242-4.862l-4.116-13.371c-5.801 3.139-12.348 4.708-19.672 4.708-5.785 0-10.332-1.423-13.571-4.254-2.731-2.531-4.124-5.616-4.124-9.278 0-4.039 1.577-7.393 4.724-10.017 2.723-2.431 7.693-5.070 14.879-7.901 8.817-3.554 15.287-7.693 19.441-12.448 4.178-4.755 6.255-10.686 6.255-17.764z" />
<glyph unicode="&#xe931;" d="M724.085 427.285h-18.080v-35.844c0-9.117 3.185-13.664 9.571-13.664 2.931 0 5.362 0.246 7.286 0.762l0.454-12.456c-3.231-1.208-7.486-1.816-12.748-1.816-6.486 0-11.54 1.985-15.202 5.932-3.647 3.954-5.47 10.579-5.47 19.903v37.213h-10.763v12.31h10.763v13.517l16.11 4.862v-18.38h18.080v-12.34z" />
<glyph unicode="&#xe932;" d="M805.497 403.289c0-11.348-3.239-20.665-9.725-27.95-6.778-7.493-15.795-11.24-27.035-11.24-10.848 0-19.472 3.593-25.904 10.779s-9.648 16.249-9.648 27.181c0 11.44 3.331 20.811 9.948 28.097 6.632 7.286 15.572 10.94 26.812 10.94 10.84 0 19.534-3.608 26.127-10.786 6.293-6.978 9.424-15.972 9.424-27.019v0zM788.495 402.912c0 6.763-1.462 12.563-4.393 17.418-3.439 5.862-8.37 8.786-14.741 8.786-6.563 0-11.617-2.924-15.041-8.786-2.947-4.855-4.401-10.755-4.401-17.726 0-6.77 1.454-12.587 4.401-17.418 3.547-5.87 8.494-8.801 14.91-8.801 6.262 0 11.179 3 14.741 8.94 3.008 4.97 4.524 10.809 4.524 17.587v0z" />
<glyph unicode="&#xe933;" d="M858.836 425.169c-1.623 0.3-3.362 0.446-5.17 0.446-5.77 0-10.232-2.162-13.371-6.532-2.731-3.847-4.093-8.709-4.093-14.579v-38.737h-16.402v50.577c0 8.501-0.162 16.264-0.477 23.242h14.287l0.6-14.125h0.454c1.739 4.855 4.462 8.771 8.201 11.694 3.662 2.647 7.601 3.962 11.856 3.962 1.516 0 2.885-0.115 4.101-0.3l0.015-15.649z" />
<glyph unicode="&#xe934;" d="M932.193 406.174c0-2.939-0.192-5.416-0.6-7.44h-49.2c0.177-7.293 2.57-12.879 7.132-16.726 4.147-3.431 9.517-5.155 16.095-5.155 7.286 0 13.933 1.154 19.911 3.493l2.57-11.386c-6.986-3.039-15.241-4.562-24.75-4.562-11.448 0-20.434 3.37-26.973 10.094-6.516 6.732-9.794 15.787-9.794 27.112 0 11.125 3.031 20.395 9.124 27.789 6.37 7.893 14.979 11.84 25.812 11.84 10.64 0 18.695-3.947 24.157-11.84 4.339-6.255 6.516-14.010 6.516-23.219v0zM916.552 410.428c0.115 4.87-0.962 9.055-3.185 12.61-2.839 4.57-7.209 6.847-13.064 6.847-5.37 0-9.732-2.223-13.056-6.686-2.731-3.547-4.355-7.817-4.855-12.756l34.159-0.015z" />
<glyph unicode="&#xe935;" d="M367.416 504.797h-8.594l-4.701 14.779h-16.349l-4.485-14.779h-8.363l16.202 50.323h10.002l16.287-50.323zM352.706 525.777l-4.254 13.14c-0.446 1.346-1.269 4.478-2.539 9.478h-0.154c-0.523-2.162-1.269-5.301-2.393-9.478l-4.178-13.14h13.517z" />
<glyph unicode="&#xe936;" d="M407.93 541.079l-13.741-36.282h-7.84l-13.294 36.282h8.663l6.201-19.187c1.046-3.208 1.939-6.27 2.608-9.178h0.223c0.6 2.608 1.493 5.67 2.608 9.178l6.124 19.187h8.447z" />
<glyph unicode="&#xe937;" d="M437.18 504.797l-0.6 4.178h-0.223c-2.462-3.362-6.047-5.001-10.602-5.001-6.493 0-11.125 4.555-11.125 10.679 0 8.955 7.763 13.587 21.203 13.587v0.669c0 4.778-2.539 7.17-7.54 7.17-3.585 0-6.724-0.9-9.478-2.693l-1.639 5.301c3.362 2.093 7.54 3.139 12.471 3.139 9.478 0 14.264-5.001 14.264-15.010v-13.364c0-3.662 0.154-6.501 0.523-8.663l-7.255 0.008zM436.057 522.868c-8.963 0-13.44-2.17-13.44-7.316 0-3.808 2.316-5.67 5.524-5.67 4.108 0 7.917 3.131 7.917 7.386v5.601z" />
<glyph unicode="&#xe938;" d="M461.869 547.057c-2.685 0-4.778 2.093-4.778 4.855s2.162 4.778 4.932 4.778c2.762 0 5.001-2.016 4.924-4.778 0-2.916-2.085-4.855-5.078-4.855v0zM457.991 541.079h8.063v-36.282h-8.063v36.282z" />
<glyph unicode="&#xe939;" d="M480.379 557.728h8.063v-52.931h-8.063v52.931z" />
<glyph unicode="&#xe93a;" d="M522.708 504.797l-0.608 4.178h-0.215c-2.462-3.362-6.047-5.001-10.602-5.001-6.493 0-11.125 4.555-11.125 10.679 0 8.955 7.763 13.587 21.203 13.587v0.669c0 4.778-2.539 7.17-7.54 7.17-3.585 0-6.724-0.9-9.478-2.693l-1.646 5.308c3.362 2.093 7.54 3.139 12.471 3.139 9.478 0 14.271-5.001 14.271-15.010v-13.364c0-3.662 0.154-6.501 0.508-8.663h-7.24zM521.585 522.868c-8.963 0-13.44-2.17-13.44-7.316 0-3.808 2.316-5.67 5.524-5.67 4.108 0 7.917 3.131 7.917 7.386v5.601z" />
<glyph unicode="&#xe93b;" d="M562.099 503.973c-5.147 0-8.947 2.17-11.417 6.424h-0.154l-0.462-5.601h-6.863c0.215 2.908 0.292 6.201 0.292 9.778v43.153h8.078v-21.957h0.146c2.393 4.031 6.27 6.047 11.571 6.047 8.74 0 14.864-7.47 14.864-18.364 0-11.263-6.801-19.48-16.056-19.48v0zM560.46 535.486c-4.639 0-8.886-4.031-8.886-9.632v-6.347c0-5.001 3.816-9.109 8.74-9.109 6.039 0 9.64 4.924 9.64 12.763-0.008 7.316-3.747 12.325-9.494 12.325v0z" />
<glyph unicode="&#xe93c;" d="M590.088 557.728h8.055v-52.931h-8.055v52.931z" />
<glyph unicode="&#xe93d;" d="M642.026 520.999h-24.204c0.162-6.87 4.701-10.748 11.417-10.748 3.593 0 6.878 0.6 9.786 1.716l1.254-5.601c-3.431-1.493-7.463-2.239-12.163-2.239-11.356 0-18.072 7.17-18.072 18.287 0 11.125 6.878 19.488 17.172 19.488 9.248 0 15.087-6.87 15.087-17.249 0.023-1.416-0.046-2.685-0.277-3.654v0zM634.641 526.746c0 5.601-2.847 9.555-8.001 9.555-4.631 0-8.278-4.031-8.817-9.555h16.818z" />
<glyph unicode="&#xe93e;" d="M690.895 503.973c-10.602 0-17.472 7.917-17.472 18.664 0 11.202 7.016 19.187 18.080 19.187 10.44 0 17.472-7.54 17.472-18.595 0-11.34-7.247-19.257-18.080-19.257v0zM691.203 535.932c-5.824 0-9.555-5.447-9.555-13.064 0-7.47 3.808-12.917 9.478-12.917s9.478 5.824 9.478 13.071c0 7.386-3.731 12.91-9.401 12.91v0z" />
<glyph unicode="&#xe93f;" d="M752.32 504.797h-8.047v20.834c0 6.416-2.47 9.632-7.324 9.632-4.778 0-8.070-4.108-8.070-8.886v-21.58h-8.047v25.912c0 3.208-0.092 6.647-0.308 10.378h7.093l0.377-5.601h0.231c2.146 3.878 6.563 6.347 11.494 6.347 7.601 0 12.602-5.824 12.602-15.302v-21.734z" />
<glyph unicode="&#xe940;" d="M805.074 535.032h-8.871v-17.618c0-4.485 1.562-6.724 4.693-6.724 1.416 0 2.623 0.154 3.585 0.377l0.223-6.124c-1.569-0.6-3.67-0.9-6.262-0.9-6.362 0-10.148 3.508-10.148 12.694v18.295h-5.285v6.047h5.285v6.647l7.909 2.393v-9.032h8.871v-6.055z" />
<glyph unicode="&#xe941;" d="M847.773 504.797h-8.070v20.68c0 6.493-2.47 9.778-7.316 9.778-4.178 0-8.055-2.839-8.055-8.586v-21.873h-8.070v52.931h8.070v-21.796h0.154c2.531 3.954 6.201 5.901 10.902 5.901 7.686 0 12.386-5.97 12.386-15.456v-21.58z" />
<glyph unicode="&#xe942;" d="M888.971 520.999h-24.196c0.154-6.87 4.693-10.748 11.417-10.748 3.601 0 6.878 0.6 9.771 1.716l1.262-5.601c-3.424-1.493-7.463-2.239-12.171-2.239-11.348 0-18.064 7.17-18.064 18.287 0 11.125 6.87 19.488 17.164 19.488 9.255 0 15.087-6.87 15.087-17.249 0.031-1.416-0.046-2.685-0.269-3.654v0zM881.578 526.746c0 5.601-2.831 9.555-7.986 9.555-4.631 0-8.286-4.031-8.817-9.555h16.803z" />
<glyph unicode="&#xe943;" glyph-name="account_active" d="M622.328 394.962c16.898 16.578 22.77 58.508 38.24 73.62 21.91 21.412 45.69 47.766 52.418 80.668 9.028 43.72-9.306 49.27-9.306 64.378 0 31.654-0.288 83.644-10.172 117.412-0.568 44.542-7.876 63.914-23.204 80.598-14.46 15.612-49.984 11.924-68.536 22.202-28.71 15.934-52.306 21.986-82.424 22.772v0.178c-0.892 0-1.752-0.106-2.644-0.106-1.47 0-2.868 0.106-4.408 0.106l0.074-0.284c-73.368-2.758-151.426-49.018-178.246-123.424-9.952-27.57-6.16-87.798-6.16-119.452 0-15.11-18.332-20.658-9.306-64.378 6.764-32.902 30.508-59.256 52.418-80.668 15.472-15.112 21.342-57.042 38.204-73.62 3.688-24.42 4.118-17.438 3.976-39.782-0.038-7.554 0.214-19.264-11.85-30.792-22.81-21.842-75.194-69.214-118.164-87.654-56.64-24.312-148.74-63.2-169.97-74.154s-77.268-40.64-77.268-59.544c0-18.944 0-88.66 0-88.66h960c0 0 0 69.716 0 88.66 0 18.904-55.998 48.59-77.274 59.544-21.266 10.956-113.286 49.842-169.932 74.154-41.824 17.938-92.596 63.34-116.302 85.862-8.018 7.59-13.676 15.542-13.75 34.876-0.138 22.484 0.436 13.892 4.014 37.488z" />
<glyph unicode="&#xe944;" glyph-name="account" d="M622.328 394.962c16.898 16.578 22.77 58.508 38.24 73.62 21.91 21.412 45.69 47.766 52.418 80.668 9.028 43.72-9.306 49.27-9.306 64.378 0 31.654-0.288 83.644-10.172 117.412-0.568 44.542-7.876 63.914-23.204 80.598-14.46 15.612-49.984 11.924-68.536 22.202-28.71 15.934-52.306 21.986-82.424 22.772v0.178c-0.892 0-1.752-0.106-2.644-0.106-1.47 0-2.868 0.106-4.408 0.106l0.074-0.284c-73.368-2.758-151.426-49.018-178.246-123.424-9.952-27.57-6.16-87.798-6.16-119.452 0-15.11-18.332-20.658-9.306-64.378 6.764-32.902 30.508-59.256 52.418-80.668 15.472-15.112 21.342-57.042 38.204-73.62 3.688-24.42 4.118-17.438 3.976-39.782-0.038-7.554 0.214-19.264-11.85-30.792-22.81-21.842-75.194-69.214-118.164-87.654-56.64-24.312-148.74-63.2-169.97-74.154s-77.268-40.64-77.268-59.544c0-18.944 0-88.66 0-88.66h960c0 0 0 69.716 0 88.66 0 18.904-55.998 48.59-77.274 59.544-21.266 10.956-113.286 49.842-169.932 74.154-41.824 17.938-92.596 63.34-116.302 85.862-8.018 7.59-13.676 15.542-13.75 34.876-0.138 22.484 0.436 13.892 4.014 37.488z" />
<glyph unicode="&#xe945;" glyph-name="chevron-down" d="M39.385 723.692c10.811-0.159 20.543-4.649 27.563-11.809l445.052-444.265 444.258 444.258c7.156 7.156 17.043 11.583 27.963 11.583 21.841 0 39.546-17.705 39.546-39.546 0-10.92-4.426-20.807-11.583-27.963l-472.615-472.615c-7.138-7.195-17.031-11.65-27.963-11.65s-20.825 4.454-27.961 11.647l-472.618 472.618c-7.444 7.175-12.067 17.233-12.067 28.371 0 21.752 17.633 39.385 39.385 39.385 0.365 0 0.73-0.005 1.093-0.015z" />
<glyph unicode="&#xe946;" glyph-name="chevron-left" d="M786.905 920.615c0.008-0.301 0.013-0.656 0.013-1.012 0-10.628-4.209-20.272-11.052-27.357l-445.035-444.247 445.046-445.046c7.156-7.156 11.583-17.043 11.583-27.963 0-21.841-17.705-39.546-39.546-39.546-10.92 0-20.807 4.426-27.963 11.583l-472.615 472.615c-7.195 7.138-11.65 17.031-11.65 27.963s4.454 20.825 11.647 27.961l472.618 472.618c7.099 6.964 16.834 11.262 27.573 11.262 21.557 0 39.069-17.319 39.38-38.802z" />
<glyph unicode="&#xe947;" glyph-name="chevron-right" d="M235.52-24.615c0.159 10.811 4.649 20.543 11.809 27.563l445.053 445.052-445.046 445.046c-5.782 6.81-9.298 15.702-9.298 25.415 0 21.752 17.633 39.385 39.385 39.385 9.909 0 18.964-3.66 25.886-9.701l472.569-472.576c7.195-7.138 11.65-17.031 11.65-27.963s-4.454-20.825-11.647-27.961l-472.618-472.618c-7.175-7.444-17.233-12.067-28.371-12.067-21.752 0-39.385 17.633-39.385 39.385 0 0.365 0.005 0.73 0.015 1.093z" />
<glyph unicode="&#xe948;" glyph-name="chevron-up" d="M984.615 172.308c-10.811 0.159-20.543 4.649-27.563 11.809l-445.052 444.265-445.046-444.258c-7.156-7.156-17.043-11.583-27.963-11.583-21.841 0-39.546 17.705-39.546 39.546 0 10.92 4.426 20.807 11.583 27.963l472.615 472.615c7.138 7.195 17.031 11.65 27.963 11.65s20.825-4.454 27.961-11.647l472.618-472.618c6.964-7.099 11.262-16.834 11.262-27.573 0-21.557-17.319-39.069-38.802-39.38z" />
<glyph unicode="&#xe949;" glyph-name="close-x" d="M550.265 448l465.651 466.189c4.896 4.896 7.925 11.661 7.925 19.133 0 14.944-12.114 27.058-27.058 27.058-7.472 0-14.236-3.029-19.133-7.925l-465.651-466.189-466.189 465.651c-4.448 3.365-10.072 5.389-16.168 5.389-14.883 0-26.947-12.065-26.947-26.947 0-6.097 2.025-11.721 5.439-16.236l465.601-466.122-465.651-466.189c-4.765-4.857-7.706-11.518-7.706-18.866 0-14.75 11.85-26.731 26.549-26.944 7.406 0.17 14.046 3.227 18.882 8.083l466.19 465.651 466.189-466.189c4.807-4.903 11.466-7.976 18.843-8.084 14.739 0.213 26.589 12.195 26.589 26.944 0 7.348-2.941 14.009-7.71 18.87l-465.646 466.724z" />
<glyph unicode="&#xe94a;" glyph-name="facebook" d="M546.987-64h-490.667c-31.131 0.121-56.32 25.385-56.32 56.533 0 0 0 0 0 0v910.933c0 31.222 25.311 56.533 56.533 56.533h910.933c31.222 0 56.533-25.311 56.533-56.533v-910.933c0-31.222-25.311-56.533-56.533-56.533h-260.907v396.587h133.12l19.84 154.453h-152.96v98.773c0 44.8 12.373 75.307 76.587 75.307h81.92v138.027c-34.86 3.941-75.268 6.189-116.201 6.189-0.773 0-1.547-0.001-2.32-0.002-117.853 0-198.706-72.106-198.706-204.373v-113.92h-134.4v-154.453h133.547v-396.587z" />
<glyph unicode="&#xe94b;" glyph-name="grid" d="M0 755.2h204.8v204.8h-204.8zM409.6 755.2h204.8v204.8h-204.8zM819.2 960v-204.8h204.8v204.8zM0 345.6h204.8v204.8h-204.8zM409.6 345.6h204.8v204.8h-204.8zM819.2 345.6h204.8v204.8h-204.8zM0-64h204.8v204.8h-204.8zM409.6-64h204.8v204.8h-204.8zM819.2-64h204.8v204.8h-204.8z" />
<glyph unicode="&#xe94c;" glyph-name="instagram" d="M512 960c-139.093 0-156.587 0-211.2-2.987-44.848-0.972-87.384-9.652-126.732-24.761-33.125-12.451-63.594-32.355-88.727-57.578-25.238-25.148-45.142-55.616-57.891-89.584-14.811-38.507-23.491-81.042-24.456-125.478-2.994-55.026-2.994-72.519-2.994-211.612s0-156.587 2.987-211.2c0.945-44.918 9.628-87.531 24.761-126.946 12.478-33.043 32.377-63.437 57.575-88.511 24.95-25.411 55.195-45.509 88.96-58.522 38.56-14.843 81.171-23.525 125.687-24.468 55.016-2.567 72.51-2.993 211.603-2.993s156.587 0 211.2 2.987c44.919 0.95 87.531 9.632 126.947 24.762 66.17 26.316 119.575 79.721 146.14 146.694 14.881 38.613 23.563 81.225 24.506 125.741 3.633 55.87 3.633 73.363 3.633 212.456s0 156.587-2.987 211.2c-0.95 44.919-9.632 87.531-24.762 126.947-12.478 33.041-32.377 63.435-57.575 88.509-24.946 25.416-55.192 45.516-88.961 58.523-38.737 14.695-81.537 23.165-126.228 23.831-54.901 2.99-72.394 2.99-211.487 2.99zM512 867.84c136.747 0 152.96 0 206.933-2.987 34.278-0.436 66.919-6.893 97.093-18.356 21.15-8.039 40.818-21.123 56.894-37.71 16.662-16.16 29.744-35.827 38.077-57.83 11.177-29.319 17.633-61.96 18.068-96.052 2.562-54.16 2.989-70.373 2.989-207.12s0-152.96-2.987-206.933c-0.436-34.278-6.893-66.919-18.356-97.093-16.962-42.774-51.697-77.509-95.268-94.72-29.377-11.214-62.017-17.67-96.109-18.105-54.16-2.562-70.373-2.989-207.12-2.989s-152.96 0-206.933 2.987c-34.278 0.436-66.919 6.893-97.093 18.356-21.147 8.046-40.814 21.129-56.894 37.71-16.661 16.16-29.744 35.826-38.076 57.829-11.177 29.319-17.633 61.96-18.068 96.052-2.562 54.16-2.989 70.373-2.989 207.12s0 152.96 2.987 206.933c0.436 34.278 6.893 66.919 18.356 97.093 8.039 21.15 21.123 40.818 37.71 56.894 16.16 16.662 35.827 29.744 57.83 38.077 29.319 11.177 61.96 17.633 96.052 18.068 53.946 2.135 70.16 2.775 206.906 2.775zM512 711.040c-145.155 0-262.827-117.672-262.827-262.827s117.672-262.827 262.827-262.827c145.080 0 262.705 117.55 262.827 262.602 0 145.167-117.671 262.838-262.827 262.838zM512 277.333c-94.257 0-170.667 76.41-170.667 170.667s76.41 170.667 170.667 170.667c94.257 0 170.667-76.41 170.667-170.667s-76.41-170.667-170.667-170.667zM846.72 721.28c0-33.932-27.508-61.44-61.44-61.44s-61.44 27.508-61.44 61.44c0 33.932 27.508 61.44 61.44 61.44s61.44-27.508 61.44-61.44z" />
<glyph unicode="&#xe94d;" glyph-name="mail" horiz-adv-x="1028" d="M1021.436 602.711c-5.824 9.95-15.593 17.054-27.107 19.194l-455.831 331.257h-8.12c-2.997 3.233-6.364 6.056-10.051 8.424l-16.019 0.124c-3.561-0.813-6.698-1.99-9.618-3.522l-4.913-2.034-2.564-2.992-467.125-339.766c-12.109-7.072-20.116-20.005-20.116-34.808 0-0.534 0.010-1.066 0.031-1.595l-0.002-598.254c-0.056-0.793-0.088-1.719-0.088-2.652 0-22.187 17.986-40.174 40.174-40.174 0.933 0 1.859 0.032 2.776 0.094l940.11-0.007c0.793-0.056 1.719-0.088 2.652-0.088 22.187 0 40.174 17.986 40.174 40.174 0 0.933-0.032 1.859-0.094 2.776l0.007 585.813c1.663 4.385 2.627 9.456 2.627 14.752 0 8.658-2.575 16.715-7 23.447zM508.581 327.907l-323.526 206.424h648.761zM512.855 865.977l338.912-246.17h-677.823zM85.476 21.476v480.801l397.89-253.008c7.355-8.157 17.746-13.454 29.379-14.099 9.246 0.536 17.594 3.492 24.648 8.227l-0.177-0.112 401.736 256.427v-478.237z" />
<glyph unicode="&#xe94e;" glyph-name="pinterest" d="M512 960c-283.733 0-512-228.267-512-512 0-209.067 125.867-390.4 307.2-469.333-2.133 36.267 0 78.933 8.533 117.333 10.667 40.533 66.133 279.467 66.133 279.467s-17.067 32-17.067 81.067c0 76.8 44.8 132.267 98.133 132.267 46.933 0 68.267-34.133 68.267-76.8 0-46.933-29.867-117.333-44.8-181.333-12.8-53.333 27.733-98.133 81.067-98.133 96 0 162.133 123.733 162.133 273.067 0 113.067-74.667 196.267-213.333 196.267-155.733 0-251.733-115.2-251.733-245.333 0-44.8 12.8-76.8 34.133-100.267 8.533-10.667 10.667-14.933 6.4-27.733-2.133-8.533-8.533-32-10.667-40.533-4.267-12.8-14.933-17.067-25.6-12.8-72.533 29.867-104.533 106.667-104.533 196.267 0 145.067 121.6 320 366.933 320 196.267 0 324.267-140.8 324.267-294.4 0-200.533-110.933-349.867-277.333-349.867-55.467 0-106.667 29.867-125.867 64 0 0-29.867-117.333-36.267-140.8-10.667-38.4-32-78.933-51.2-108.8 46.933-12.8 93.867-21.333 145.067-21.333 283.733 0 512 228.267 512 512 2.133 279.467-226.133 507.733-509.867 507.733z" />
<glyph unicode="&#xe94f;" glyph-name="to-top" d="M870.4 960h-716.8c-84.831 0-153.6-68.769-153.6-153.6v-716.8c0-84.831 68.769-153.6 153.6-153.6h716.8c84.831 0 153.6 68.769 153.6 153.6v716.8c0 84.831-68.769 153.6-153.6 153.6zM736.512 334.080c-3.224-3.386-7.766-5.491-12.8-5.491s-9.576 2.106-12.793 5.484l-198.919 199.431-199.424-199.424c-3.276-3.276-7.801-5.302-12.8-5.302-9.997 0-18.102 8.105-18.102 18.102 0 4.999 2.026 9.524 5.302 12.8l211.968 211.968c3.224 3.386 7.766 5.491 12.8 5.491s9.576-2.106 12.793-5.484l211.975-211.975c3.386-3.224 5.491-7.766 5.491-12.8s-2.106-9.576-5.484-12.793z" />
<glyph unicode="&#xe950;" glyph-name="windowfit" d="M512 582.737c-7.397 0.109-14.056 3.181-18.859 8.080l-323.373 323.373c-3.365 4.448-5.389 10.072-5.389 16.168 0 14.883 12.065 26.947 26.947 26.947 6.097 0 11.721-2.025 16.236-5.439l304.437-303.917 304.505 303.966c4.896 4.896 11.661 7.925 19.133 7.925 14.944 0 27.058-12.114 27.058-27.058 0-7.472-3.029-14.236-7.925-19.133l-323.368-323.368c-4.84-4.674-11.439-7.554-18.71-7.554-0.243 0-0.486 0.003-0.728 0.010zM835.368-64c-7.397 0.109-14.056 3.181-18.859 8.080l-304.51 303.971-304.505-303.966c-4.896-4.896-11.661-7.925-19.133-7.925-14.944 0-27.058 12.114-27.058 27.058 0 7.472 3.029 14.236 7.925 19.133l323.368 323.368c4.884 4.923 11.652 7.971 19.133 7.971s14.248-3.048 19.131-7.969l323.37-323.37c4.765-4.857 7.706-11.518 7.706-18.866 0-14.75-11.85-26.731-26.549-26.944z" />
<glyph unicode="&#xe951;" glyph-name="zoom" d="M991.744-20.992l-304.128 331.776c65.8 68.806 106.302 162.281 106.302 265.216 0 212.077-171.923 384-384 384-0.112 0-0.223 0-0.335 0-211.915-0.192-383.645-172.041-383.645-384 0-105.955 42.913-201.887 112.306-271.364 69.503-69.588 165.572-112.637 271.695-112.637 91.287 0 175.134 31.854 241.032 85.053l303.397-332.347c4.615-4.529 10.945-7.325 17.927-7.325 14.138 0 25.6 11.462 25.6 25.6 0 6.090-2.126 11.683-5.677 16.078zM76.8 576c0 183.8 149 332.8 332.8 332.8s332.8-149 332.8-332.8c0-183.8-149-332.8-332.8-332.8-183.683 0.291-332.509 149.117-332.8 332.772z" />
<glyph unicode="&#xe952;" glyph-name="zoom-minus" d="M991.744-20.992l-304.128 331.776c65.551 68.754 105.885 162.057 105.885 264.78 0 212.077-171.923 384-384 384-105.906 0-201.798-42.873-271.268-112.21-71.081-69.738-115.142-166.81-115.142-274.174 0-212.077 171.923-384 384-384 92.575 0 177.499 32.759 243.812 87.318l303.464-332.306c4.615-4.529 10.945-7.325 17.927-7.325 14.138 0 25.6 11.462 25.6 25.6 0 6.090-2.126 11.683-5.677 16.078zM76.8 576c0 183.8 149 332.8 332.8 332.8s332.8-149 332.8-332.8c0-183.8-149-332.8-332.8-332.8-183.683 0.291-332.509 149.117-332.8 332.772zM614.4 550.4h-409.6c-14.138 0-25.6 11.462-25.6 25.6s11.462 25.6 25.6 25.6h409.6c14.138 0 25.6-11.462 25.6-25.6s-11.462-25.6-25.6-25.6z" />
<glyph unicode="&#xe953;" glyph-name="zoom-plus" d="M991.744-20.992l-304.128 331.776c65.8 68.806 106.302 162.281 106.302 265.216 0 212.077-171.923 384-384 384-0.112 0-0.223 0-0.335 0-211.915-0.192-383.645-172.041-383.645-384 0-105.955 42.913-201.887 112.306-271.364 69.503-69.588 165.572-112.637 271.695-112.637 91.287 0 175.134 31.854 241.032 85.053l303.397-332.347c4.615-4.529 10.945-7.325 17.927-7.325 14.138 0 25.6 11.462 25.6 25.6 0 6.090-2.126 11.683-5.677 16.078zM76.8 576c0 183.8 149 332.8 332.8 332.8s332.8-149 332.8-332.8c0-183.8-149-332.8-332.8-332.8-183.683 0.291-332.509 149.117-332.8 332.772zM614.4 601.6h-179.2v179.2c0 14.138-11.462 25.6-25.6 25.6s-25.6-11.462-25.6-25.6v-179.2h-179.2c-14.138 0-25.6-11.462-25.6-25.6s11.462-25.6 25.6-25.6h179.2v-179.2c0-14.138 11.462-25.6 25.6-25.6s25.6 11.462 25.6 25.6v179.2h179.2c14.138 0 25.6 11.462 25.6 25.6s-11.462 25.6-25.6 25.6z" />
<glyph unicode="&#xe954;" glyph-name="male" horiz-adv-x="585" d="M585.143 548.571v-237.714c0-30.286-24.571-54.857-54.857-54.857s-54.857 24.571-54.857 54.857v201.143h-36.571v-521.143c0-35.429-28.571-64-64-64s-64 28.571-64 64v265.143h-36.571v-265.143c0-35.429-28.571-64-64-64s-64 28.571-64 64v521.143h-36.571v-201.143c0-30.286-24.571-54.857-54.857-54.857s-54.857 24.571-54.857 54.857v237.714c0 60.571 49.143 109.714 109.714 109.714h365.714c60.571 0 109.714-49.143 109.714-109.714zM420.571 804.571c0-70.857-57.143-128-128-128s-128 57.143-128 128 57.143 128 128 128 128-57.143 128-128z" />
<glyph unicode="&#xe955;" glyph-name="check" d="M384 248.667l452 452 60-60-512-512-238 238 60 60z" />
<glyph unicode="&#xe956;" glyph-name="female" horiz-adv-x="731" d="M731.429 347.428c0-30.286-24.571-54.857-54.857-54.857-18.286 0-35.429 9.143-45.714 24.571l-129.714 194.857h-25.714v-75.429l141.143-234.857c3.429-5.714 5.143-12 5.143-18.857 0-20-16.571-36.571-36.571-36.571h-109.714v-155.429c0-35.429-28.571-64-64-64h-91.429c-34.857 0-64 28.571-64 64v155.429h-109.714c-20 0-36.571 16.571-36.571 36.571 0 6.857 1.714 13.143 5.143 18.857l141.143 234.857v75.429h-25.714l-129.714-194.857c-10.286-15.429-27.429-24.571-45.714-24.571-30.286 0-54.857 24.571-54.857 54.857 0 10.857 3.429 21.714 9.143 30.286l146.286 219.429c22.857 33.714 58.286 61.143 100.571 61.143h219.429c42.286 0 77.714-27.429 100.571-61.143l146.286-219.429c5.714-8.571 9.143-19.429 9.143-30.286zM493.714 804.571c0-70.857-57.143-128-128-128s-128 57.143-128 128 57.143 128 128 128 128-57.143 128-128z" />
<glyph unicode="&#xe957;" glyph-name="pencil" d="M864 960c88.364 0 160-71.634 160-160 0-36.020-11.91-69.258-32-96l-64-64-224 224 64 64c26.742 20.090 59.978 32 96 32zM64 224l-64-288 288 64 592 592-224 224-592-592zM715.578 596.422l-448-448-55.156 55.156 448 448 55.156-55.156z" />
<glyph unicode="&#xe958;" glyph-name="Timeshop24_Info_Icon_v01_CRV" d="M565.617 742.807c35.77 0 53.674-24.339 53.674-52.235 0-34.823-31.076-67.073-71.502-67.073-33.877 0-53.636 20.024-52.689 53.106-0.038 27.859 23.468 66.202 70.518 66.202zM455.544 208.91c-28.237 0-48.942 17.412-29.184 94.061l32.401 135.925c5.64 21.727 6.548 30.471 0 30.471-8.479 0-45.081-14.989-66.808-29.827l-14.081 23.506c68.663 58.367 147.659 92.547 181.536 92.547 28.199 0 32.931-33.991 18.812-86.226l-37.132-142.89c-6.548-25.209-3.747-33.915 2.839-33.915 8.479 0 36.224 10.447 63.515 32.212l16.011-21.727c-66.77-67.982-139.71-94.137-167.91-94.137zM511.981-64c-282.297 0-511.981 229.684-511.981 512.019s229.684 511.981 511.981 511.981 511.981-229.684 511.981-511.981-229.646-512.019-511.981-512.019zM511.981 922.148c-261.441 0-474.129-212.688-474.129-474.129s212.688-474.129 474.129-474.129 474.129 212.688 474.129 474.129-212.65 474.129-474.129 474.129z" />
<glyph unicode="&#xe959;" glyph-name="linkedin" d="M832 960h-640c-106 0-192-86-192-192v-640c0-106 86-192 192-192h640c106 0 192 86 192 192v640c0 106-86 192-192 192zM316.615 90.769h-159.077l-0.923 476.308h159.077zM233.077 629.385h-0.923c-52 0-85.538 35.846-85.538 80.462 0 45.692 34.615 80.308 87.538 80.308s85.385-34.615 86.462-80.308c0-44.615-33.692-80.462-87.538-80.462zM868.154 90.769h-160.462v258.769c0 62.615-16.615 105.231-72.615 105.231-42.769 0-65.846-28.769-76.923-56.615-4.154-10-5.231-23.692-5.231-37.692v-269.692h-161.231l-0.923 476.308h161.231l0.923-67.231c20.615 31.846 54.923 76.923 137.077 76.923 101.846 0 178-66.462 178-209.385v-276.615z" />
<glyph unicode="&#xe95a;" glyph-name="twitter" d="M1018.308 740.462c-37.077-16.462-76.923-27.538-118.769-32.615 42.615 25.692 75.538 66.154 90.923 114.462-40-23.692-84.308-40.923-131.385-50.154-37.692 40.154-91.385 65.231-150.923 65.231-114.154 0-206.769-92.615-206.769-206.769 0-16.154 1.846-32 5.385-47.077-171.846 8.615-324.154 91.077-426.154 216.154-17.846-30.615-28-66.154-28-104.154 0-71.692 36.462-134.923 92-172-34 1.077-65.846 10.308-93.692 25.846 0-0.923 0-1.692 0-2.615 0-100.154 71.231-183.692 165.846-202.769-17.385-4.769-35.538-7.231-54.462-7.231-13.385 0-26.308 1.231-38.923 3.692 26.308-82 102.615-142 193.077-143.538-70.615-55.538-159.846-88.462-256.769-88.462-16.769 0-33.077 0.923-49.231 2.769 91.385-58.615 200.154-92.769 316.923-92.769 380.308 0 588.308 315.077 588.308 588.154 0 9.077-0.154 18-0.615 26.923 40.462 28.923 75.538 65.385 103.231 106.923z" />
<glyph unicode="&#xe95b;" glyph-name="whatsapp-black" d="M511.851 960h0.299c282.261 0 511.851-229.653 511.851-512 0-282.325-229.589-512-511.829-512-104.128 0-200.725 30.997-281.664 84.565l-196.8-62.891 63.787 190.229c-61.376 84.288-97.493 188.117-97.493 300.096 0 282.347 229.589 512 511.851 512zM368.917 699.925c-9.92 23.787-17.451 24.683-32.491 25.28-5.12 0.299-10.837 0.597-17.152 0.597-19.563 0-40.021-5.717-52.373-18.368-15.040-15.36-52.352-51.157-52.352-124.608s53.568-144.491 60.779-154.411c7.531-9.92 104.427-162.837 254.869-225.152 117.653-48.768 152.576-44.245 179.349-38.528 39.125 8.427 88.171 37.333 100.501 72.235 12.331 34.923 12.331 64.725 8.725 71.040s-13.547 9.92-28.587 17.451c-15.040 7.531-88.171 43.648-102.016 48.469-13.547 5.12-26.475 3.307-36.715-11.136-14.443-20.16-28.587-40.64-40.021-52.971-9.024-9.643-23.787-10.837-36.117-5.717-16.555 6.912-62.891 23.189-120.064 74.048-44.245 39.424-74.325 88.491-83.051 103.232-8.725 15.040-0.896 23.787 6.016 31.915 7.531 9.344 14.741 15.957 22.272 24.683s11.733 13.248 16.555 23.488c5.12 9.92 1.493 20.16-2.112 27.691-3.584 7.531-33.685 80.981-46.016 110.763z" />
<glyph unicode="&#xe95c;" glyph-name="xing" d="M832 960h-640c-106 0-192-86-192-192v-640c0-106 86-192 192-192h640c106 0 192 86 192 192v640c0 106-86 192-192 192zM296.154 288.615h-114.154c-6.923 0-12 3.231-14.923 7.846-3.077 4.923-3.231 11.231 0 17.538l121.385 214.154c0 0.308 0 0.462 0 0.615l-77.231 133.692c-3.231 6.308-3.692 12.615-0.769 17.538 2.923 4.769 8.769 7.077 15.538 7.077h114.308c17.538 0 26.154-11.231 31.692-21.385 0 0 78.154-136.154 78.615-136.923-4.615-8.154-123.231-218-123.231-218-5.846-10.615-14.154-22.154-31.231-22.154zM855.846 818.615l-252.923-447.077c-0.154-0.308-0.154-0.462 0-0.769l161.077-294.154c3.231-6.462 3.231-12.769 0.154-17.692-2.923-4.615-8.154-7.231-15.077-7.231h-114.154c-17.385 0-26.154 11.538-31.846 21.692 0 0-161.846 296.923-162.308 297.692 8.154 14.308 254.154 450.615 254.154 450.615 6.154 11.077 13.538 21.692 30.615 21.692h115.385c6.769 0 12.308-2.462 15.077-7.231 3.077-4.769 3.077-11.231-0.154-17.538z" />
<glyph unicode="&#xe9ac;" glyph-name="trash" d="M128 640v-640c0-35.2 28.8-64 64-64h576c35.2 0 64 28.8 64 64v640h-704zM320 64h-64v448h64v-448zM448 64h-64v448h64v-448zM576 64h-64v448h64v-448zM704 64h-64v448h64v-448zM848 832h-208v80c0 26.4-21.6 48-48 48h-224c-26.4 0-48-21.6-48-48v-80h-208c-26.4 0-48-21.6-48-48v-80h832v80c0 26.4-21.6 48-48 48zM576 832h-192v63.198h192v-63.198z" />
<glyph unicode="&#xe9d7;" glyph-name="star-empty" d="M1024 562.95l-353.78 51.408-158.22 320.582-158.216-320.582-353.784-51.408 256-249.538-60.432-352.352 316.432 166.358 316.432-166.358-60.434 352.352 256.002 249.538zM512 206.502l-223.462-117.48 42.676 248.83-180.786 176.222 249.84 36.304 111.732 226.396 111.736-226.396 249.836-36.304-180.788-176.222 42.678-248.83-223.462 117.48z" />
<glyph unicode="&#xe9d8;" glyph-name="star-half" d="M1024 562.95l-353.78 51.408-158.22 320.582-158.216-320.582-353.784-51.408 256-249.538-60.432-352.352 316.432 166.358 316.432-166.358-60.434 352.352 256.002 249.538zM512 206.502l-0.942-0.496 0.942 570.768 111.736-226.396 249.836-36.304-180.788-176.222 42.678-248.83-223.462 117.48z" />
<glyph unicode="&#xe9d9;" glyph-name="star-full" d="M1024 562.95l-353.78 51.408-158.22 320.582-158.216-320.582-353.784-51.408 256-249.538-60.432-352.352 316.432 166.358 316.432-166.358-60.434 352.352 256.002 249.538z" />
<glyph unicode="&#xea45;" glyph-name="tab" d="M960 960h64v-512h-64v512zM0 448h64v-512h-64v512zM320 256h704v-128h-704v-160l-224 224 224 224v-160zM704 640h-704v128h704v160l224-224-224-224z" />
<glyph unicode="&#xea8b;" glyph-name="google-plus" d="M325.8 502.6v-111.8h184.8c-7.4-48-55.8-140.6-184.8-140.6-111.2 0-202 92.2-202 205.8s90.8 205.8 202 205.8c63.4 0 105.6-27 129.8-50.2l88.4 85.2c-56.8 53-130.4 85.2-218.2 85.2-180.2-0.2-325.8-145.8-325.8-326s145.6-325.8 325.8-325.8c188 0 312.8 132.2 312.8 318.4 0 21.4-2.4 37.8-5.2 54h-307.6zM1024 512h-96v96h-96v-96h-96v-96h96v-96h96v96h96z" />
</font>
</defs>
</svg>
